Filma vizatimore te dubluar ne shqip!

sWeetTy

Antarë
Liza në botën e çudirave [1951] DvDrip

alices.jpg




Media Info:

Code:
General
Complete name                    : Liza.në.botën.e.çudirave[1951]DvDrip[Alb]-neutrOn.avi
Format                           : AVI
Format/Info                      : Audio Video Interleave
File size                        : 688 MiB
Duration                         : 1h 16mn
Overall bit rate                 : 1 259 Kbps

Video
ID                               : 0
Format                           : MPEG-4 Visual
Format settings, BVOP            : Yes
Format settings, QPel            : No
Format settings, GMC             : 2 warppoints
Format settings, Matrix          : Default (H.263)
Codec ID                         : DX50
Codec ID/Hint                    : DivX 5
Duration                         : 1h 12mn
Bit rate                         : 1 063 Kbps
Width                            : 512 pixels
Height                           : 384 pixels
Display aspect ratio             : 4/3
Frame rate                       : 25.000 fps
Resolution                       : 24 bits
Scan type                        : Progressive
Bits/(Pixel*Frame)               : 0.216
Stream size                      : 550 MiB (80%)
Writing library                  : DivX 5.0.0 (UTC 2002-03-04)

Audio
ID                               : 1
Format                           : MPEG Audio
Format version                   : Version 1
Format profile                   : Layer 3
Codec ID                         : 55
Codec ID/Hint                    : MP3
Duration                         : 1h 16mn
Bit rate mode                    : Constant
Bit rate                         : 256 Kbps
Channel(s)                       : 2 channels
Sampling rate                    : 48.0 KHz
Resolution                       : 16 bits
Stream size                      : 133 MiB (19%)
Alignment                        : Aligned on interleaves
Interleave, duration             : 40 ms (1.00 video frame)



IMDB Link:
Code:
http://www.imdb.com/title/tt0043274/



Screenshots:
42994985.jpg

12652708.jpg

59533572.jpg




Download:
Code:
http://www.multiupload.com/4E1CXUXVY3
http://www.multiupload.com/Y1KMWD3P7F
http://www.multiupload.com/GBN6YGM5C6
http://www.multiupload.com/P453YKF9VV
http://www.multiupload.com/V20G2XASOX
http://www.multiupload.com/2S7NS096FU
http://www.multiupload.com/67R5I5P1CR



rapidshare.com
Code:
http://rapidshare.com/files/266076521/Alice.in.Wonderland_1951_DvDrip_Alb_-neutrOn.part1.rar
http://rapidshare.com/files/266086434/Alice.in.Wonderland_1951_DvDrip_Alb_-neutrOn.part2.rar
http://rapidshare.com/files/266075851/Alice.in.Wonderland_1951_DvDrip_Alb_-neutrOn.part3.rar
http://rapidshare.com/files/266086337/Alice.in.Wonderland_1951_DvDrip_Alb_-neutrOn.part4.rar
http://rapidshare.com/files/258612766/Alice.in.Wonderland_1951_DvDrip_Alb_-neutrOn.part5.rar
http://rapidshare.com/files/258833882/Alice.in.Wonderland_1951_DvDrip_Alb_-neutrOn.part6.rar
http://rapidshare.com/files/258873292/Alice.in.Wonderland_1951_DvDrip_Alb_-neutrOn.part7.rar



mediafire.com
Code:
http://www.mediafire.com/?d5djg5lnmyz
http://www.mediafire.com/?umyyjfy3ytt
http://www.mediafire.com/?iozzmkz1jju
http://www.mediafire.com/?bnz1knmjjtn
http://www.mediafire.com/?0tbmgktyyk0
http://www.mediafire.com/?dydzqomzmme
http://www.mediafire.com/?hk2zyzqyha2






-----------






E bukura dhe bisha [1991] DvDrip

Beauty__Beast.jpg



Media Info:
Code:
General
Format                           : AVI
Format/Info                      : Audio Video Interleave
File size                        : 674 MiB
Duration                         : 1h 27mn
Overall bit rate                 : 1 077 Kbps

Video
Format                           : MPEG-4 Visual
Format profile                   : Streaming [email protected]
Format settings, BVOP            : Yes
Format settings, QPel            : No
Format settings, GMC             : No warppoints
Format settings, Matrix          : Custom
Codec ID                         : XVID
Codec ID/Hint                    : XviD
Duration                         : 1h 27mn
Bit rate                         : 845 Kbps
Width                            : 576 pixels
Height                           : 320 pixels
Display aspect ratio             : 16/9
Frame rate                       : 25.000 fps
Original frame rate              : 23.976 fps
Resolution                       : 24 bits
Colorimetry                      : 4:2:0
Scan type                        : Progressive
Bits/(Pixel*Frame)               : 0.183
Stream size                      : 528 MiB (78%)
Writing library                  : XviD 1.2.0SMP (UTC 2006-01-08)

Audio
Format                           : MPEG Audio
Format version                   : Version 1
Format profile                   : Layer 3
Codec ID                         : 55
Codec ID/Hint                    : MP3
Duration                         : 1h 25mn
Bit rate mode                    : Constant
Bit rate                         : 224 Kbps
Channel(s)                       : 2 channels
Sampling rate                    : 48.0 KHz
Resolution                       : 16 bits
Stream size                      : 137 MiB (20%)



Screenshots:
63538591.jpg

28104333.jpg

47545067.jpg




Download:
Code:
http://www.multiupload.com/AVVLVXULO1
http://www.multiupload.com/4YXD6MV0ZD
http://www.multiupload.com/LC8QEZPBE2
http://www.multiupload.com/8TML01AYIE
http://www.multiupload.com/D1X3X8HKUJ
http://www.multiupload.com/K0001J5PO0
http://www.multiupload.com/9TUIDXA9VI



rapidshare.com
Code:
http://rapidshare.com/files/264051587/Beauty.and.the.beast_1991_DvDrip_Alb_-neutrOn.part1.rar.html
http://rapidshare.com/files/264149107/Beauty.and.the.beast_1991_DvDrip_Alb_-neutrOn.part2.rar.html
http://rapidshare.com/files/264420976/Beauty.and.the.beast_1991_DvDrip_Alb_-neutrOn.part3.rar.html
http://rapidshare.com/files/264421891/Beauty.and.the.beast_1991_DvDrip_Alb_-neutrOn.part4.rar.html
http://rapidshare.com/files/264670139/Beauty.and.the.beast_1991_DvDrip_Alb_-neutrOn.part5.rar.html
http://rapidshare.com/files/264721931/Beauty.and.the.beast_1991_DvDrip_Alb_-neutrOn.part6.rar.html
http://rapidshare.com/files/264758331/Beauty.and.the.beast_1991_DvDrip_Alb_-neutrOn.part7.rar.html



mediafire.com
Code:
http://www.mediafire.com/?wmmmzjtzr0j
http://www.mediafire.com/?iny0yoqgyn2
http://www.mediafire.com/?mz2ijjahojg
http://www.mediafire.com/?mrymmyazjyn
http://www.mediafire.com/?t12nmg0l2w4
http://www.mediafire.com/?qm3ti2boy2t
http://www.mediafire.com/?dnma2j0jxn1






----------






Mbreti Luan 2 - Krenaria e Simbas [1998] DvDrip


12616022.jpg




Media Info:
Code:
General
Complete name                    : Mbreti.Luan.2-Krenaria.e.Simbas[1998]DvDrip[Alb]-neutrOn.avi
Format                           : AVI
Format/Info                      : Audio Video Interleave
File size                        : 692 MiB
Duration                         : 1h 17mn
Overall bit rate                 : 1 248 Kbps

Video
ID                               : 0
Format                           : MPEG-4 Visual
Format profile                   : Streaming [email protected]
Format settings, BVOP            : Yes
Format settings, QPel            : No
Format settings, GMC             : No warppoints
Format settings, Matrix          : Default (H.263)
Codec ID                         : XVID
Codec ID/Hint                    : XviD
Duration                         : 1h 17mn
Bit rate                         : 1 114 Kbps
Width                            : 640 pixels
Height                           : 376 pixels
Display aspect ratio             : 16/9
Frame rate                       : 25.000 fps
Resolution                       : 24 bits
Colorimetry                      : 4:2:0
Scan type                        : Progressive
Bits/(Pixel*Frame)               : 0.185
Stream size                      : 618 MiB (89%)
Writing library                  : XviD 1.2.1 (UTC 2008-12-04)

Audio
ID                               : 1
Format                           : MPEG Audio
Format version                   : Version 1
Format profile                   : Layer 3
Codec ID                         : 55
Codec ID/Hint                    : MP3
Duration                         : 1h 13mn
Bit rate mode                    : Constant
Bit rate                         : 128 Kbps
Channel(s)                       : 2 channels
Sampling rate                    : 44.1 KHz
Resolution                       : 16 bits
Stream size                      : 67.6 MiB (10%)
Alignment                        : Split accross interleaves
Interleave, duration             : 27 ms (0.69 video frame)



IMDB Link:
Code:
http://www.imdb.com/title/tt0120131/



Screenshots
98173204.jpg

50030586.jpg

75532060.jpg




Download:
Code:
http://www.multiupload.com/KP7XEJ3FE7
http://www.multiupload.com/J9HP2LEL7D
http://www.multiupload.com/MS37COZRFC
http://www.multiupload.com/SO380LPXPG
http://www.multiupload.com/F4UOQ8IJU5
http://www.multiupload.com/H8P8KBZK81
http://www.multiupload.com/CL7RTENFZB



rapidshare.com
Code:
http://rapidshare.com/files/265139738/The.Lion.King.2-Simba_s.Pride_1998_DvDrip_Alb_-neutrOn.part1.rar
http://rapidshare.com/files/265176875/The.Lion.King.2-Simba_s.Pride_1998_DvDrip_Alb_-neutrOn.part2.rar
http://rapidshare.com/files/265222933/The.Lion.King.2-Simba_s.Pride_1998_DvDrip_Alb_-neutrOn.part3.rar
http://rapidshare.com/files/265267175/The.Lion.King.2-Simba_s.Pride_1998_DvDrip_Alb_-neutrOn.part4.rar
http://rapidshare.com/files/265344846/The.Lion.King.2-Simba_s.Pride_1998_DvDrip_Alb_-neutrOn.part5.rar
http://rapidshare.com/files/265344872/The.Lion.King.2-Simba_s.Pride_1998_DvDrip_Alb_-neutrOn.part6.rar
http://rapidshare.com/files/265344888/The.Lion.King.2-Simba_s.Pride_1998_DvDrip_Alb_-neutrOn.part7.rar



mediafire.com
Code:
http://www.mediafire.com/?imxqt4ydv4i
http://www.mediafire.com/?ijvr0zb2txd
http://www.mediafire.com/?4q4bnxblmjg
http://www.mediafire.com/?mnmdztjejjj
http://www.mediafire.com/?vmr2w2jmynn
http://www.mediafire.com/?m2ynnyueom0
http://www.mediafire.com/?mnzmvmzzzde






--------






Shrek [2001] DvDrip

shrekver3.jpg




Media Info:
Code:
General
Complete name                    : Shrek[2001]DvDrip[Alb]-neutrOn.avi
Format                           : AVI
Format/Info                      : Audio Video Interleave
File size                        : 702 MiB
Duration                         : 1h 26mn
Overall bit rate                 : 1 136 Kbps

Video
ID                               : 0
Format                           : MPEG-4 Visual
Format profile                   : Streaming [email protected]
Format settings, BVOP            : Yes
Format settings, QPel            : No
Format settings, GMC             : No warppoints
Format settings, Matrix          : Default (H.263)
Codec ID                         : XVID
Codec ID/Hint                    : XviD
Duration                         : 1h 26mn
Bit rate                         : 931 Kbps
Width                            : 672 pixels
Height                           : 368 pixels
Display aspect ratio             : 16/9
Frame rate                       : 25.000 fps
Resolution                       : 24 bits
Colorimetry                      : 4:2:0
Scan type                        : Progressive
Bits/(Pixel*Frame)               : 0.151
Stream size                      : 575 MiB (82%)
Writing library                  : XviD 1.2.0.dev47 (UTC 2006-11-01)

Audio
ID                               : 1
Format                           : MPEG Audio
Format version                   : Version 1
Format profile                   : Layer 3
Codec ID                         : 55
Codec ID/Hint                    : MP3
Duration                         : 1h 26mn
Bit rate mode                    : Constant
Bit rate                         : 192 Kbps
Channel(s)                       : 2 channels
Sampling rate                    : 48.0 KHz
Resolution                       : 16 bits
Stream size                      : 119 MiB (17%)
Alignment                        : Split accross interleaves
Interleave, duration             : 24 ms (0.60 video frame)



IMDB Link:
Code:
http://www.imdb.com/title/tt0126029/



Screenshots:
16880685.jpg

90788947.jpg

25797696.jpg




Download:
Code:
http://www.multiupload.com/N0G2F36Q3F
http://www.multiupload.com/1EYEKOQ1JX
http://www.multiupload.com/BPEDA58DGS
http://www.multiupload.com/4IQ2MB3S9N
http://www.multiupload.com/FYN0D3ZMCL
http://www.multiupload.com/NLLBFHC87O
http://www.multiupload.com/BARNWZCOGX


rapidshare.com
Code:
http://rapidshare.com/files/265713026/Shrek_2001_DvDrip_Alb_-neutrOn.part1.rar
http://rapidshare.com/files/265711110/Shrek_2001_DvDrip_Alb_-neutrOn.part2.rar
http://rapidshare.com/files/265712859/Shrek_2001_DvDrip_Alb_-neutrOn.part3.rar
http://rapidshare.com/files/265713431/Shrek_2001_DvDrip_Alb_-neutrOn.part4.rar
http://rapidshare.com/files/265713695/Shrek_2001_DvDrip_Alb_-neutrOn.part5.rar
http://rapidshare.com/files/265712832/Shrek_2001_DvDrip_Alb_-neutrOn.part6.rar
http://rapidshare.com/files/266506760/Shrek_2001_DvDrip_Alb_-neutrOn.part7.rar



hotfile.com
Code:
http://hotfile.com/dl/9926309/28b8c52/Shrek2001DvDripAlb-neutrOn.part1.rar.html
http://hotfile.com/dl/9932226/4575f75/Shrek2001DvDripAlb-neutrOn.part2.rar.html
http://hotfile.com/dl/9937666/aadbed9/Shrek2001DvDripAlb-neutrOn.part3.rar.html
http://hotfile.com/dl/9942682/8c471ac/Shrek2001DvDripAlb-neutrOn.part4.rar.html
http://hotfile.com/dl/9946703/e723bf3/Shrek2001DvDripAlb-neutrOn.part5.rar.html
http://hotfile.com/dl/9950942/39102bf/Shrek2001DvDripAlb-neutrOn.part6.rar.html
http://hotfile.com/dl/9967471/eb7ecd2/Shrek2001DvDripAlb-neutrOn.part7.rar.html






----------





Hamshori [2002] DvDrip

9a4cvk.jpg



Media Info:
Code:
General
Complete name                    : Hamshori[2002]DvDrip[Alb]-neutrOn.avi
Format                           : AVI
Format/Info                      : Audio Video Interleave
File size                        : 598 MiB
Duration                         : 1h 20mn
Overall bit rate                 : 1 044 Kbps

Video
ID                               : 0
Format                           : MPEG-4 Visual
Format profile                   : Streaming [email protected]
Format settings, BVOP            : Yes
Format settings, QPel            : No
Format settings, GMC             : No warppoints
Format settings, Matrix          : Default (H.263)
Codec ID                         : XVID
Codec ID/Hint                    : XviD
Duration                         : 1h 20mn
Bit rate                         : 823 Kbps
Width                            : 656 pixels
Height                           : 304 pixels
Display aspect ratio             : 2.2
Frame rate                       : 25.000 fps
Resolution                       : 24 bits
Colorimetry                      : 4:2:0
Scan type                        : Progressive
Bits/(Pixel*Frame)               : 0.165
Stream size                      : 471 MiB (79%)
Writing library                  : XviD 1.2.0.dev47 (UTC 2006-11-01)

Audio
ID                               : 1
Format                           : MPEG Audio
Format version                   : Version 1
Format profile                   : Layer 3
Codec ID                         : 55
Codec ID/Hint                    : MP3
Duration                         : 1h 14mn
Bit rate mode                    : Constant
Bit rate                         : 224 Kbps
Channel(s)                       : 2 channels
Sampling rate                    : 44.1 KHz
Resolution                       : 16 bits
Stream size                      : 119 MiB (20%)
Alignment                        : Split accross interleaves
Interleave, duration             : 28 ms (0.70 video frame)



IMDB Link:
Code:
http://www.imdb.com/title/tt0166813/



Screenshots:
19186518.jpg

47967316.jpg

36661161.jpg




Download:
Code:
http://www.multiupload.com/CA2XU1RORJ
http://www.multiupload.com/WPS8XH693A
http://www.multiupload.com/NYT7973W5T
http://www.multiupload.com/ZOFXTZ793K
http://www.multiupload.com/8O71F3SC8R
http://www.multiupload.com/MT06XLATCS



rapidshare.com
Code:
http://rapidshare.com/files/266081074/Spirit.Stallion.of.the.Cimarron_2002_DvDrip_Alb_-neutrOn.part1.rar
http://rapidshare.com/files/265143938/Spirit.Stallion.of.the.Cimarron_2002_DvDrip_Alb_-neutrOn.part2.rar
http://rapidshare.com/files/266082743/Spirit.Stallion.of.the.Cimarron_2002_DvDrip_Alb_-neutrOn.part3.rar
http://rapidshare.com/files/266082926/Spirit.Stallion.of.the.Cimarron_2002_DvDrip_Alb_-neutrOn.part4.rar
http://rapidshare.com/files/266082736/Spirit.Stallion.of.the.Cimarron_2002_DvDrip_Alb_-neutrOn.part5.rar
http://rapidshare.com/files/265147654/Spirit.Stallion.of.the.Cimarron_2002_DvDrip_Alb_-neutrOn.part6.rar



mediafire.com
Code:
http://www.mediafire.com/?tt2ytmgwued
http://www.mediafire.com/?mv0wdmjzdyo
http://www.mediafire.com/?gtytnjmyzyz
http://www.mediafire.com/?jzmmoz0dj1o
http://www.mediafire.com/?zg2bjycmmdc
http://www.mediafire.com/?ierjddmdqm2
 

sWeetTy

Antarë
Lilo dhe Stiç [2002] DvDrip

liloandstitch01.jpg




Media Info:
Code:
General
Complete name                    : Lilo.dhe.Stiç[2002]DvDrip[Alb]-neutrOn.avi
Format                           : AVI
Format/Info                      : Audio Video Interleave
File size                        : 690 MiB
Duration                         : 1h 21mn
Overall bit rate                 : 1 179 Kbps

Video
ID                               : 0
Format                           : MPEG-4 Visual
Format settings, BVOP            : Yes
Format settings, QPel            : No
Format settings, GMC             : No warppoints
Format settings, Matrix          : Default (MPEG)
Codec ID                         : XVID
Codec ID/Hint                    : XviD
Duration                         : 1h 21mn
Bit rate                         : 1 049 Kbps
Width                            : 592 pixels
Height                           : 352 pixels
Display aspect ratio             : 1.682
Frame rate                       : 25.000 fps
Resolution                       : 24 bits
Scan type                        : Progressive
Bits/(Pixel*Frame)               : 0.201
Stream size                      : 614 MiB (89%)

Audio
ID                               : 1
Format                           : MPEG Audio
Format version                   : Version 1
Format profile                   : Layer 3
Codec ID                         : 55
Codec ID/Hint                    : MP3
Duration                         : 1h 16mn
Bit rate mode                    : Constant
Bit rate                         : 128 Kbps
Channel(s)                       : 1 channel
Sampling rate                    : 48.0 KHz
Resolution                       : 16 bits
Stream size                      : 70.6 MiB (10%)
Alignment                        : Aligned on interleaves
Interleave, duration             : 42 ms (1.06 video frame)



IMDB Link:
Code:
http://www.imdb.com/title/tt0275847/



Screenshots:
23700296.jpg

12226553.jpg

77632836.jpg




Download:
Code:
http://www.multiupload.com/DUR11DJHM6
http://www.multiupload.com/3NU1EGGJL9
http://www.multiupload.com/H8KW5FM7PU
http://www.multiupload.com/LSRC9UIJKP
http://www.multiupload.com/3M7DL2HBKR
http://www.multiupload.com/YABCGZ5JLZ
http://www.multiupload.com/5B4WCEVJEJ




rapidshare.com
Code:
http://rapidshare.com/files/266113855/Lilo.and.Stitch_2002_DvDrip_Alb_-neutrOn.part1.rar
http://rapidshare.com/files/266113857/Lilo.and.Stitch_2002_DvDrip_Alb_-neutrOn.part2.rar
http://rapidshare.com/files/266113726/Lilo.and.Stitch_2002_DvDrip_Alb_-neutrOn.part3.rar
http://rapidshare.com/files/266114195/Lilo.and.Stitch_2002_DvDrip_Alb_-neutrOn.part4.rar
http://rapidshare.com/files/266114257/Lilo.and.Stitch_2002_DvDrip_Alb_-neutrOn.part5.rar
http://rapidshare.com/files/266109977/Lilo.and.Stitch_2002_DvDrip_Alb_-neutrOn.part6.rar
http://rapidshare.com/files/266110073/Lilo.and.Stitch_2002_DvDrip_Alb_-neutrOn.part7.rar



mediafire.com
Code:
http://www.mediafire.com/?z23yyniye3k
http://www.mediafire.com/?oyy1kj33zwh
http://www.mediafire.com/?sxmlxghcyd2
http://www.mediafire.com/?ynyxbq0zovu
http://www.mediafire.com/?1wmx2fz0vm1
http://www.mediafire.com/?0cnmj1twlrb
http://www.mediafire.com/?o2fcjmmcjzl






----------






Epoka e akullnajave [2002] DvDrip

ice_age_1.jpg




Media Info:
Code:
General
Complete name                    : Epoka.e.akullnajave[2002]DvDrip[Alb]-neutrOn.avi
Format                           : AVI
Format/Info                      : Audio Video Interleave
File size                        : 698 MiB
Duration                         : 1h 17mn
Overall bit rate                 : 1 254 Kbps

Video
ID                               : 0
Format                           : MPEG-4 Visual
Format profile                   : Streaming [email protected]
Format settings, BVOP            : Yes
Format settings, QPel            : No
Format settings, GMC             : No warppoints
Format settings, Matrix          : Custom
Codec ID                         : XVID
Codec ID/Hint                    : XviD
Duration                         : 1h 17mn
Bit rate                         : 1 122 Kbps
Width                            : 720 pixels
Height                           : 400 pixels
Display aspect ratio             : 16/9
Frame rate                       : 25.000 fps
Original frame rate              : 23.976 fps
Resolution                       : 24 bits
Colorimetry                      : 4:2:0
Scan type                        : Progressive
Bits/(Pixel*Frame)               : 0.156
Stream size                      : 624 MiB (90%)
Writing library                  : XviD 1.2.0.dev47 (UTC 2006-11-01)

Audio
ID                               : 1
Format                           : MPEG Audio
Format version                   : Version 1
Format profile                   : Layer 3
Codec ID                         : 55
Codec ID/Hint                    : MP3
Duration                         : 1h 14mn
Bit rate mode                    : Constant
Bit rate                         : 128 Kbps
Channel(s)                       : 1 channel
Sampling rate                    : 48.0 KHz
Resolution                       : 16 bits
Stream size                      : 67.8 MiB (10%)
Alignment                        : Aligned on interleaves
Interleave, duration             : 42 ms (1.05 video frame)



IMDB Link:
Code:
http://www.imdb.com/title/tt0268380/



Screenshots:
28565209.jpg

92972875.jpg

35984939.jpg




Download:
Code:
http://www.multiupload.com/RR9N1FRRVE
http://www.multiupload.com/YUBOHFHBM8
http://www.multiupload.com/1T9GQYW33V
http://www.multiupload.com/6YHFK4PNYD
http://www.multiupload.com/H1VA7M5075
http://www.multiupload.com/GS0H7D0JYZ
http://www.multiupload.com/XHHRYIRF9C



rapidshare.com

Code:
http://rapidshare.com/files/263194357/Ice.Age_2002_DvDrip_Alb_-neutrOn.part1.rar
http://rapidshare.com/files/263301372/Ice.Age_2002_DvDrip_Alb_-neutrOn.part2.rar
http://rapidshare.com/files/263346778/Ice.Age_2002_DvDrip_Alb_-neutrOn.part3.rar
http://rapidshare.com/files/263392956/Ice.Age_2002_DvDrip_Alb_-neutrOn.part4.rar
http://rapidshare.com/files/263509351/Ice.Age_2002_DvDrip_Alb_-neutrOn.part5.rar
http://rapidshare.com/files/263509501/Ice.Age_2002_DvDrip_Alb_-neutrOn.part6.rar
http://rapidshare.com/files/263509557/Ice.Age_2002_DvDrip_Alb_-neutrOn.part7.rar



mediafire.com

Code:
http://www.mediafire.com/?llmnm2z9ymg
http://www.mediafire.com/?xcqwz0wn2cz
http://www.mediafire.com/?nkb1ozyot3n
http://www.mediafire.com/?scelqt7ydmy
http://www.mediafire.com/?zmmmmmn0gj9
http://www.mediafire.com/?kl9wj1mx1yb
http://www.mediafire.com/?abjcy9ybm5k






---------






Gjetja e Nemos [2003] DvDrip

FindingNemoPoster.jpg




Media Info:
Code:
General
Complete name                    : Finding.Nemo[2003]DvDrip[Alb]-neutrOn.avi
Format                           : AVI
Format/Info                      : Audio Video Interleave
File size                        : 700 MiB
Duration                         : 1h 36mn
Overall bit rate                 : 1 016 Kbps

Video
ID                               : 0
Format                           : MPEG-4 Visual
Format settings, BVOP            : No
Format settings, QPel            : No
Format settings, GMC             : No warppoints
Format settings, Matrix          : Default (MPEG)
Codec ID                         : XVID
Codec ID/Hint                    : XviD
Duration                         : 1h 36mn
Bit rate                         : 847 Kbps
Width                            : 576 pixels
Height                           : 320 pixels
Display aspect ratio             : 16/9
Frame rate                       : 25.000 fps
Original frame rate              : 23.976 fps
Resolution                       : 24 bits
Colorimetry                      : 4:2:0
Scan type                        : Progressive
Bits/(Pixel*Frame)               : 0.184
Stream size                      : 584 MiB (83%)

Audio
ID                               : 1
Format                           : MPEG Audio
Format version                   : Version 1
Format profile                   : Layer 3
Codec ID                         : 55
Codec ID/Hint                    : MP3
Duration                         : 1h 35mn
Bit rate mode                    : Constant
Bit rate                         : 160 Kbps
Channel(s)                       : 2 channels
Sampling rate                    : 48.0 KHz
Resolution                       : 16 bits
Stream size                      : 110 MiB (16%)
Alignment                        : Aligned on interleaves
Interleave, duration             : 40 ms (1.00 video frame)



IMDB Link:
Code:
http://www.imdb.com/title/tt0266543/



Screenshots:
89352890.jpg

41375173.jpg

96416600.jpg




Download:
Code:
http://www.multiupload.com/5L0S7KEWTI
http://www.multiupload.com/1FR79HM9VW
http://www.multiupload.com/1C64XAGWO0
http://www.multiupload.com/RANWSJX9OF
http://www.multiupload.com/IV5P7K5T1S
http://www.multiupload.com/Y8N1JUHQ3B
http://www.multiupload.com/QPIMQCFPIV



rapidshare.com
Code:
http://rapidshare.com/files/266198697/Finding.Nemo_2003_DvDrip_Alb_-neutrOn.part1.rar
http://rapidshare.com/files/266120743/Finding.Nemo_2003_DvDrip_Alb_-neutrOn.part2.rar
http://rapidshare.com/files/266120816/Finding.Nemo_2003_DvDrip_Alb_-neutrOn.part3.rar
http://rapidshare.com/files/266198609/Finding.Nemo_2003_DvDrip_Alb_-neutrOn.part4.rar
http://rapidshare.com/files/266120710/Finding.Nemo_2003_DvDrip_Alb_-neutrOn.part5.rar
http://rapidshare.com/files/266120771/Finding.Nemo_2003_DvDrip_Alb_-neutrOn.part6.rar
http://rapidshare.com/files/266120718/Finding.Nemo_2003_DvDrip_Alb_-neutrOn.part7.rar



megaupload.com
Code:
http://www.megaupload.com/?d=I1JO7IZ2
http://www.megaupload.com/?d=4FGIOKYW
http://www.megaupload.com/?d=ON27KUWY
http://www.megaupload.com/?d=MV0R8A69
http://www.megaupload.com/?d=6OTAZCNU
http://www.megaupload.com/?d=4CH4QELK
http://www.megaupload.com/?d=4HGN4Z4G



mediafire.com
Code:
http://www.mediafire.com/?2jbmnhwuwbd
http://www.mediafire.com/?nnjjdot2nyu
http://www.mediafire.com/?je4zwnk2ov4
http://www.mediafire.com/?omggciamjmn
http://www.mediafire.com/?32zigee2kzd
http://www.mediafire.com/?kjzywzw3mrz
http://www.mediafire.com/?zidxxkddgim






----------






Vëllai Ari [2003] DvDrip

brotherbearverdvd.jpg




IMDB Link:
Code:
http://www.imdb.com/title/tt0328880/



Media Info:
Code:
General
Complete name                    : Vëllai.Ari[2003]DvDrip[Alb]-neutrOn.avi
Format                           : AVI
Format/Info                      : Audio Video Interleave
File size                        : 697 MiB
Duration                         : 1h 25mn
Overall bit rate                 : 1 144 Kbps

Video
ID                               : 0
Format                           : MPEG-4 Visual
Format profile                   : Streaming [email protected]
Format settings, BVOP            : Yes
Format settings, QPel            : No
Format settings, GMC             : No warppoints
Format settings, Matrix          : Default (H.263)
Codec ID                         : DX50
Codec ID/Hint                    : DivX 5
Duration                         : 1h 25mn
Bit rate                         : 956 Kbps
Width                            : 492 pixels
Height                           : 282 pixels
Display aspect ratio             : 16/9
Frame rate                       : 23.976 fps
Original frame rate              : 25.000 fps
Resolution                       : 24 bits
Colorimetry                      : 4:2:0
Scan type                        : Progressive
Bits/(Pixel*Frame)               : 0.287
Stream size                      : 582 MiB (84%)
Writing library                  : XviD 0039 build=2005.10.08 (UTC 2005-10-08)

Audio
ID                               : 1
Format                           : MPEG Audio
Format version                   : Version 1
Format profile                   : Layer 3
Codec ID                         : 55
Codec ID/Hint                    : MP3
Duration                         : 1h 18mn
Bit rate mode                    : Constant
Bit rate                         : 192 Kbps
Channel(s)                       : 2 channels
Sampling rate                    : 48.0 KHz
Resolution                       : 16 bits
Stream size                      : 107 MiB (15%)
Alignment                        : Aligned on interleaves
Interleave, duration             : 26 ms (0.63 video frame)



Screenshots:
68741255.jpg

18189802.jpg

33912433.jpg




Download:
Code:
http://www.megaupload.com/?d=S53SWY4N
http://www.megaupload.com/?d=ZO5S59V0
http://www.megaupload.com/?d=1BY5TS5R
http://www.megaupload.com/?d=UTYLTNQZ



rapidshare.com
Code:
http://rapidshare.com/files/265163979/Brother.Bear_2003_DvDrip_Alb_-neutrOn.part1.rar
http://rapidshare.com/files/265159820/Brother.Bear_2003_DvDrip_Alb_-neutrOn.part2.rar
http://rapidshare.com/files/265160072/Brother.Bear_2003_DvDrip_Alb_-neutrOn.part3.rar
http://rapidshare.com/files/265157980/Brother.Bear_2003_DvDrip_Alb_-neutrOn.part4.rar






----------






Fantastikët [2004] DvDrip

TheIncredibles_poster.jpg




Media Info:
Code:
General
Complete name                    : Fantastikët[2004]DvDrip[Alb]-neutrOn.avi
Format                           : AVI
Format/Info                      : Audio Video Interleave
File size                        : 697 MiB
Duration                         : 1h 50mn
Overall bit rate                 : 881 Kbps

Video
ID                               : 0
Format                           : MPEG-4 Visual
Format settings, BVOP            : Yes
Format settings, QPel            : No
Format settings, GMC             : No warppoints
Format settings, Matrix          : Default (H.263)
Codec ID                         : DX50
Codec ID/Hint                    : DivX 5
Duration                         : 1h 50mn
Bit rate                         : 743 Kbps
Width                            : 560 pixels
Height                           : 240 pixels
Display aspect ratio             : 2.35
Frame rate                       : 25.000 fps
Resolution                       : 24 bits
Colorimetry                      : 4:2:0
Scan type                        : Progressive
Bits/(Pixel*Frame)               : 0.221
Stream size                      : 588 MiB (84%)
Writing library                  : DivX 6.8.3 (UTC 2008-06-07)

Audio
ID                               : 1
Format                           : MPEG Audio
Format version                   : Version 1
Format profile                   : Layer 3
Codec ID                         : 55
Codec ID/Hint                    : MP3
Duration                         : 1h 50mn
Bit rate mode                    : Constant
Bit rate                         : 128 Kbps
Channel(s)                       : 2 channels
Sampling rate                    : 48.0 KHz
Resolution                       : 16 bits
Stream size                      : 101 MiB (15%)
Alignment                        : Aligned on interleaves
Interleave, duration             : 40 ms (1.00 video frame)
Writing library                  : LAME3.96.1



IMDB Link:

Code:
http://www.imdb.com/title/tt0317705/



Screenshots:
24813538.jpg

82584577.jpg

20682697.jpg




Download:
Code:
http://www.multiupload.com/FZ536B7VZD
http://www.multiupload.com/XE23YSF837
http://www.multiupload.com/UBIS12KO6V
http://www.multiupload.com/843LP58M9V
http://www.multiupload.com/AAUA25R0U8
http://www.multiupload.com/2F8HQ1JBWL
http://www.multiupload.com/5KGB3EXT1L



rapidshare.com
Code:
http://rapidshare.com/files/264795265/The.Incredibles_2004_DvDrip_Alb_-neutrOn.part1.rar
http://rapidshare.com/files/264833465/The.Incredibles_2004_DvDrip_Alb_-neutrOn.part2.rar
http://rapidshare.com/files/264995227/The.Incredibles_2004_DvDrip_Alb_-neutrOn.part3.rar
http://rapidshare.com/files/264995387/The.Incredibles_2004_DvDrip_Alb_-neutrOn.part4.rar
http://rapidshare.com/files/264995243/The.Incredibles_2004_DvDrip_Alb_-neutrOn.part5.rar
http://rapidshare.com/files/265059912/The.Incredibles_2004_DvDrip_Alb_-neutrOn.part6.rar
http://rapidshare.com/files/265096067/The.Incredibles_2004_DvDrip_Alb_-neutrOn.part7.rar



mediafire.com
Code:
http://www.mediafire.com/?ezjnznm1tzh
http://www.mediafire.com/?mmnqtznyzjm
http://www.mediafire.com/?djw0znyomtk
http://www.mediafire.com/?gzrbnwmezg3
http://www.mediafire.com/?mkwoxgm4jyo
http://www.mediafire.com/?dj0jzmz0142
http://www.mediafire.com/?5mmyjtyjuwi
 

sWeetTy

Antarë
Mbreti Luan 3 - Hakuna Matata [2004] DvDrip

25810894.jpg




Media Info:
Code:
General
Complete name                    : Mbreti.Luan.3-Hakuna.Matata[2004]DvDrip[Alb]-neutrOn.avi
Format                           : AVI
Format/Info                      : Audio Video Interleave
File size                        : 696 MiB
Duration                         : 1h 13mn
Overall bit rate                 : 1 329 Kbps

Video
Format                           : MPEG-4 Visual
Format profile                   : Streaming [email protected]
Format settings, BVOP            : Yes
Format settings, QPel            : No
Format settings, GMC             : No warppoints
Format settings, Matrix          : Default
Codec ID                         : XVID
Codec ID/Hint                    : XviD
Duration                         : 1h 13mn
Bit rate                         : 1 160 Kbps
Width                            : 624 pixels
Height                           : 368 pixels
Display aspect ratio             : 1.696
Frame rate                       : 25.000 fps
Original frame rate              : 23.976 fps
Resolution                       : 24 bits
Colorimetry                      : 4:2:0
Scan type                        : Progressive
Bits/(Pixel*Frame)               : 0.202
Stream size                      : 607 MiB (87%)
Writing library                  : XviD 1.0.0 RC2 (Jambo) (UTC 2004-02-01)

Audio
Format                           : MPEG Audio
Format version                   : Version 1
Format profile                   : Layer 3
Codec ID                         : 55
Codec ID/Hint                    : MP3
Duration                         : 1h 13mn
Bit rate mode                    : Constant
Bit rate                         : 160 Kbps
Channel(s)                       : 2 channels
Sampling rate                    : 48.0 KHz
Resolution                       : 16 bits
Stream size                      : 83.7 MiB (12%)
Alignment                        : Split accross interleaves
Interleave, duration             : 40 ms (1.00 video frame)



IMDB Link:
Code:
http://www.imdb.com/title/tt0318403/



Screenshots:
70483225.jpg

30780799.jpg

88644992.jpg



Download:
Code:
http://www.multiupload.com/1PWA8NOVYW
http://www.multiupload.com/6IVIPHCNHE
http://www.multiupload.com/Y4M4F45URO
http://www.multiupload.com/260QK89IT9
http://www.multiupload.com/IB0DXFT8Y6
http://www.multiupload.com/L59AOC4A18
http://www.multiupload.com/BTWO1JMDQI



rapidshare.com
Code:
http://rapidshare.com/files/265146571/The.Lion.King3-Hakuna.Matata_2004_DvDrip_Alb_-neutrOn.part1.rar
http://rapidshare.com/files/265144501/The.Lion.King3-Hakuna.Matata_2004_DvDrip_Alb_-neutrOn.part2.rar
http://rapidshare.com/files/265132694/The.Lion.King3-Hakuna.Matata_2004_DvDrip_Alb_-neutrOn.part3.rar
http://rapidshare.com/files/265132570/The.Lion.King3-Hakuna.Matata_2004_DvDrip_Alb_-neutrOn.part4.rar
http://rapidshare.com/files/265150324/The.Lion.King3-Hakuna.Matata_2004_DvDrip_Alb_-neutrOn.part5.rar
http://rapidshare.com/files/265148531/The.Lion.King3-Hakuna.Matata_2004_DvDrip_Alb_-neutrOn.part6.rar
http://rapidshare.com/files/265147014/The.Lion.King3-Hakuna.Matata_2004_DvDrip_Alb_-neutrOn.part7.rar



mediafire.com
Code:
http://www.mediafire.com/?nmnjtymdkmk
http://www.mediafire.com/?diyzjjnznu0
http://www.mediafire.com/?mngmm1rnr2g
http://www.mediafire.com/?jymjm5myhtm
http://www.mediafire.com/?z4ij3mwjnty
http://www.mediafire.com/?dnrzrnzznzt
http://www.mediafire.com/?zhmdhqkzq0h






----------






Madagaskar [2005] DvDrip


41203395.png




Media Info:
Code:
General
Complete name                    : Madagaskar[2005]DvDrip[Alb]-neutrOn.avi
Format                           : AVI
Format/Info                      : Audio Video Interleave
[B]File size                        : 702 MiB[/B]
Duration                         : 1h 22mn
Overall bit rate                 : 1 190 Kbps

Video
ID                               : 0
Format                           : MPEG-4 Visual
Format profile                   : Streaming [email protected]
Format settings, BVOP            : Yes
Format settings, QPel            : No
Format settings, GMC             : No warppoints
Format settings, Matrix          : Default (H.263)
Codec ID                         : DX50
Codec ID/Hint                    : DivX 5
Duration                         : 1h 22mn
Bit rate                         : 1 053 Kbps
Width                            : 668 pixels
Height                           : 352 pixels
Display aspect ratio             : 1.898
Frame rate                       : 25.000 fps
Resolution                       : 24 bits
Colorimetry                      : 4:2:0
Scan type                        : Progressive
Bits/(Pixel*Frame)               : 0.179
Stream size                      : 620 MiB (88%)
Writing library                  : XviD 1.0.3 (UTC 2004-12-20)

Audio
ID                               : 1
Format                           : MPEG Audio
Format version                   : Version 1
Format profile                   : Layer 3
Codec ID                         : 55
Codec ID/Hint                    : MP3
Duration                         : 1h 22mn
Bit rate mode                    : Constant
Bit rate                         : 128 Kbps
Channel(s)                       : 2 channels
Sampling rate                    : 48.0 KHz
Resolution                       : 16 bits
Stream size                      : 75.4 MiB (11%)
Alignment                        : Aligned on interleaves
Interleave, duration             : 40 ms (1.00 video frame)



IMDB Link:
Code:
http://www.imdb.com/title/tt0351283/



Screenshots:
14612622.jpg

65069404.jpg

49352488.jpg




Download:
Code:
http://www.multiupload.com/L4QQ2OPSNG
http://www.multiupload.com/F9IN1S8B0M
http://www.multiupload.com/VZR7YQY0AR
http://www.multiupload.com/FOL625ROT3
http://www.multiupload.com/Q9VLWTUREZ
http://www.multiupload.com/E5QX6U14IH
http://www.multiupload.com/I8DQZ26IIK



rapidshare.com
Code:
http://rapidshare.com/files/259358850/Madagascar_2005_DvDrip_Alb_-neutrOn.part1.rar
http://rapidshare.com/files/259358895/Madagascar_2005_DvDrip_Alb_-neutrOn.part2.rar
http://rapidshare.com/files/259358836/Madagascar_2005_DvDrip_Alb_-neutrOn.part3.rar
http://rapidshare.com/files/259653831/Madagascar_2005_DvDrip_Alb_-neutrOn.part4.rar
http://rapidshare.com/files/259992102/Madagascar_2005_DvDrip_Alb_-neutrOn.part5.rar
http://rapidshare.com/files/260229137/Madagascar_2005_DvDrip_Alb_-neutrOn.part6.rar
http://rapidshare.com/files/260236305/Madagascar_2005_DvDrip_Alb_-neutrOn.part7.rar






----------






Epoka e akullnajave 2 - Shkrirja [2006] DvDrip

iceage2poster.jpg




Media Info:
Code:
General
Complete name                    : Epoka.e.akullnajave2-Shkrirja[2006]DvDrip[Alb]-neutrOn.avi
Format                           : AVI
Format/Info                      : Audio Video Interleave
File size                        : 697 MiB
Duration                         : 1h 30mn
Overall bit rate                 : 1 075 Kbps

Video
ID                               : 0
Format                           : MPEG-4 Visual
Format profile                   : Streaming [email protected]
Format settings, BVOP            : Yes
Format settings, QPel            : No
Format settings, GMC             : No warppoints
Format settings, Matrix          : Default (H.263)
Codec ID                         : DX50
Codec ID/Hint                    : DivX 5
Duration                         : 1h 30mn
Bit rate                         : 886 Kbps
Width                            : 520 pixels
Height                           : 274 pixels
Display aspect ratio             : 1.898
Frame rate                       : 23.976 fps
Original frame rate              : 25.000 fps
Resolution                       : 24 bits
Colorimetry                      : 4:2:0
Scan type                        : Progressive
Bits/(Pixel*Frame)               : 0.259
Stream size                      : 574 MiB (82%)
Writing library                  : XviD 1.0.3 (UTC 2004-12-20)

Audio
ID                               : 1
Format                           : MPEG Audio
Format version                   : Version 1
Format profile                   : Layer 3
Codec ID                         : 55
Codec ID/Hint                    : MP3
Duration                         : 1h 24mn
Bit rate mode                    : Constant
Bit rate                         : 192 Kbps
Channel(s)                       : 2 channels
Sampling rate                    : 48.0 KHz
Resolution                       : 16 bits
Stream size                      : 116 MiB (17%)
Alignment                        : Aligned on interleaves
Interleave, duration             : 45 ms (1.07 video frame)



IMDB Link:
Code:
http://www.imdb.com/title/tt0438097/



Screenshots:
87095639.jpg

79452016.jpg

99808598.jpg




Download:
Code:
http://www.multiupload.com/RXEAAXMQHU
http://www.multiupload.com/QK9DMVYODO
http://www.multiupload.com/6SP7GHPAOP
http://www.multiupload.com/6KMBXZNEAY
http://www.multiupload.com/S17J8MMG1E
http://www.multiupload.com/08V1UMGKL4
http://www.multiupload.com/WRWCA8UU6Z



rapidshare.com
Code:
http://rapidshare.com/files/263509396/Ice.Age.2-The.Meltdown_2006_DvDrip_Alb_-neutrOn.part1.rar
http://rapidshare.com/files/263549117/Ice.Age.2-The.Meltdown_2006_DvDrip_Alb_-neutrOn.part2.rar
http://rapidshare.com/files/263585629/Ice.Age.2-The.Meltdown_2006_DvDrip_Alb_-neutrOn.part3.rar
http://rapidshare.com/files/263681490/Ice.Age.2-The.Meltdown_2006_DvDrip_Alb_-neutrOn.part4.rar
http://rapidshare.com/files/263725170/Ice.Age.2-The.Meltdown_2006_DvDrip_Alb_-neutrOn.part5.rar
http://rapidshare.com/files/263764072/Ice.Age.2-The.Meltdown_2006_DvDrip_Alb_-neutrOn.part6.rar
http://rapidshare.com/files/263804294/Ice.Age.2-The.Meltdown_2006_DvDrip_Alb_-neutrOn.part7.rar



mediafire.com
Code:
http://www.mediafire.com/?2c4jt5jjjwy
http://www.mediafire.com/?ylytqxytnmt
http://www.mediafire.com/?mgm13g1wmn1
http://www.mediafire.com/?lvmfyzzozm2
http://www.mediafire.com/?ztdzyynn9xn
http://www.mediafire.com/?jfiamlmixzg
http://www.mediafire.com/?uqqy3ucynfg






----------





Vëllai Ari 2 [2006] DvDrip

brotherbear2.jpg




IMDB Link:
Code:
http://www.imdb.com/title/tt0465925/



Media Info:
Code:
General
Complete name                    : Vëllai.Ari2[2006]DvDrip.AC3[Alb]-[neutrOn].avi
Format                           : AVI
Format/Info                      : Audio Video Interleave
File size                        : 703 MiB
Duration                         : 1h 10mn
Overall bit rate                 : 1 398 Kbps

Video
ID                               : 0
Format                           : MPEG-4 Visual
Format profile                   : Streaming [email protected]
Format settings, BVOP            : Yes
Format settings, QPel            : No
Format settings, GMC             : No warppoints
Format settings, Matrix          : Default (H.263)
Codec ID                         : DX50
Codec ID/Hint                    : DivX 5
Duration                         : 1h 10mn
Bit rate                         : 1 181 Kbps
Width                            : 596 pixels
Height                           : 326 pixels
Display aspect ratio             : 16/9
Frame rate                       : 25.000 fps
Original frame rate              : 23.976 fps
Resolution                       : 24 bits
Colorimetry                      : 4:2:0
Scan type                        : Progressive
Bits/(Pixel*Frame)               : 0.243
Stream size                      : 594 MiB (85%)
Writing library                  : XviD 1.0.3 (UTC 2004-12-20)

Audio
ID                               : 1
Format                           : AC-3
Format/Info                      : Audio Coding 3
Codec ID                         : 2000
Duration                         : 1h 4mn
Bit rate mode                    : Constant
Bit rate                         : 224 Kbps
Channel(s)                       : 2 channels
Channel positions                : L R
Sampling rate                    : 48.0 KHz
Resolution                       : 16 bits
Stream size                      : 104 MiB (15%)
Alignment                        : Aligned on interleaves
Interleave, duration             : 35 ms (0.87 video frame)



Screenshots:
98015451.jpg

80711316.jpg

45211961.jpg




Download:
Code:
http://www.multiupload.com/UTWBMT7TU2
http://www.multiupload.com/K38X4774KI
http://www.multiupload.com/NIPRIEON4L
http://www.multiupload.com/TLBUJG4K5D
http://www.multiupload.com/7WJPLY2571
http://www.multiupload.com/ASP3ON24UI
http://www.multiupload.com/UR4OH2D9AD



rapidshare.com
Code:
http://rapidshare.com/files/266090911/Brother.Bear2_2006_DvDrip.AC3_Alb_-neutrOn.part1.rar
http://rapidshare.com/files/266100675/Brother.Bear2_2006_DvDrip.AC3_Alb_-neutrOn.part2.rar
http://rapidshare.com/files/266100726/Brother.Bear2_2006_DvDrip.AC3_Alb_-neutrOn.part3.rar
http://rapidshare.com/files/266100692/Brother.Bear2_2006_DvDrip.AC3_Alb_-neutrOn.part4.rar
http://rapidshare.com/files/266100690/Brother.Bear2_2006_DvDrip.AC3_Alb_-neutrOn.part5.rar
http://rapidshare.com/files/266100665/Brother.Bear2_2006_DvDrip.AC3_Alb_-neutrOn.part6.rar
http://rapidshare.com/files/266100623/Brother.Bear2_2006_DvDrip.AC3_Alb_-neutrOn.part7.rar







---------






Hirushja 3 - Loja e fatit [2007] DvDrip

1605pta3af7bf.jpg




Media Info:

Code:
General
Complete name                    : Hirushja.3-Loja.e.fatit[2007]DvDrip[Alb]-neutrOn.avi
Format                           : AVI
Format/Info                      : Audio Video Interleave
File size                        : 701 MiB
Duration                         : 1h 10mn
Overall bit rate                 : 1 381 Kbps

Video
ID                               : 0
Format                           : MPEG-4 Visual
Format settings, BVOP            : No
Format settings, QPel            : No
Format settings, GMC             : No warppoints
Format settings, Matrix          : Default (H.263)
Codec ID                         : XVID
Codec ID/Hint                    : XviD
Duration                         : 1h 10mn
Bit rate                         : 1 241 Kbps
Width                            : 544 pixels
Height                           : 304 pixels
Display aspect ratio             : 16/9
Frame rate                       : 25.000 fps
Resolution                       : 24 bits
Colorimetry                      : 4:2:0
Scan type                        : Progressive
Bits/(Pixel*Frame)               : 0.300
Stream size                      : 630 MiB (90%)
Writing library                  : XviD 1.0.3 (UTC 2004-12-20)

Audio
ID                               : 1
Format                           : MPEG Audio
Format version                   : Version 1
Format profile                   : Layer 3
Codec ID                         : 55
Codec ID/Hint                    : MP3
Duration                         : 1h 10mn
Bit rate mode                    : Constant
Bit rate                         : 128 Kbps
Channel(s)                       : 2 channels
Sampling rate                    : 48.0 KHz
Resolution                       : 16 bits
Stream size                      : 64.5 MiB (9%)
Alignment                        : Split accross interleaves
Interleave, duration             : 24 ms (0.60 video frame)



IMDB Link:
Code:
http://www.imdb.com/title/tt0465940/



Screenshots:
71033177.jpg

49084552.jpg

65422574.jpg




Download:

Code:
http://www.multiupload.com/AL49I1V8CL
http://www.multiupload.com/8UZWDL3DAK
http://www.multiupload.com/BKL3QWAU1S
http://www.multiupload.com/KSYNHDDEIM
http://www.multiupload.com/SDOA94KAAS
http://www.multiupload.com/TP3T2JHQC3
http://www.multiupload.com/5QAWY3M8U6



rapidshare.com
Code:
http://rapidshare.com/files/259751432/Cinderella.III-A.Twist.in_Time_2007_DvDrip_Alb_-neutrOn.part1.rar.html
http://rapidshare.com/files/259751516/Cinderella.III-A.Twist.in_Time_2007_DvDrip_Alb_-neutrOn.part2.rar.html 
http://rapidshare.com/files/259751527/Cinderella.III-A.Twist.in_Time_2007_DvDrip_Alb_-neutrOn.part3.rar.html
http://rapidshare.com/files/259802430/Cinderella.III-A.Twist.in_Time_2007_DvDrip_Alb_-neutrOn.part4.rar.html
http://rapidshare.com/files/259853698/Cinderella.III-A.Twist.in_Time_2007_DvDrip_Alb_-neutrOn.part5.rar.html
http://rapidshare.com/files/259890771/Cinderella.III-A.Twist.in_Time_2007_DvDrip_Alb_-neutrOn.part6.rar.html
http://rapidshare.com/files/259950577/Cinderella.III-A.Twist.in_Time_2007_DvDrip_Alb_-neutrOn.part7.rar.html
 

sWeetTy

Antarë
Shrek 2 [2004] DvDrip

Shrek_2_one-sheet_L-01.jpg




Media Info:
Code:
General
Complete name                    : Shrek.2[2004]DvDrip[Alb]-neutrOn.avi
Format                           : AVI
Format/Info                      : Audio Video Interleave
File size                        : 696 MiB
Duration                         : 1h 32mn
Overall bit rate                 : 1 052 Kbps

Video
ID                               : 0
Format                           : MPEG-4 Visual
Format profile                   : Streaming [email protected]
Format settings, BVOP            : Yes
Format settings, QPel            : No
Format settings, GMC             : No warppoints
Format settings, Matrix          : Default (H.263)
Codec ID                         : XVID
Codec ID/Hint                    : XviD
Duration                         : 1h 32mn
Bit rate                         : 912 Kbps
Width                            : 608 pixels
Height                           : 320 pixels
Display aspect ratio             : 1.900
Frame rate                       : 23.976 fps
Resolution                       : 24 bits
Colorimetry                      : 4:2:0
Scan type                        : Progressive
Bits/(Pixel*Frame)               : 0.195
Stream size                      : 603 MiB (87%)
Writing library                  : XviD 1.0.1 (UTC 2004-06-05)

Audio
ID                               : 1
Format                           : MPEG Audio
Format version                   : Version 1
Format profile                   : Layer 3
Codec ID                         : 55
Codec ID/Hint                    : MP3
Duration                         : 1h 32mn
Bit rate mode                    : Constant
Bit rate                         : 128 Kbps
Channel(s)                       : 2 channels
Sampling rate                    : 48.0 KHz
Resolution                       : 16 bits
Stream size                      : 84.6 MiB (12%)
Alignment                        : Split accross interleaves
Interleave, duration             : 24 ms (0.58 video frame)



IMDB Link:
Code:
http://www.imdb.com/title/tt0298148/



Screenshots:
54945205.jpg

16105398.jpg

74746244.jpg




Download:
Code:
http://www.multiupload.com/7LYIWTXHUR
http://www.multiupload.com/GLRLZLFJ8J
http://www.multiupload.com/NKJQJCI515
http://www.multiupload.com/MAO3O6SA6F
http://www.multiupload.com/AD9WV90QO3
http://www.multiupload.com/QZBPM898FF
http://www.multiupload.com/R3IRJL8NT3



rapidshare.com
Code:
http://rapidshare.com/files/266478830/Shrek.2_2004_DvDrip_Alb_-neutrOn.part1.rar
http://rapidshare.com/files/266478908/Shrek.2_2004_DvDrip_Alb_-neutrOn.part2.rar
http://rapidshare.com/files/266478995/Shrek.2_2004_DvDrip_Alb_-neutrOn.part3.rar
http://rapidshare.com/files/266478967/Shrek.2_2004_DvDrip_Alb_-neutrOn.part4.rar
http://rapidshare.com/files/266478968/Shrek.2_2004_DvDrip_Alb_-neutrOn.part5.rar
http://rapidshare.com/files/266606329/Shrek.2_2004_DvDrip_Alb_-neutrOn.part6.rar
http://rapidshare.com/files/266723859/Shrek.2_2004_DvDrip_Alb_-neutrOn.part7.rar.html



mediafire.com
Code:
http://www.mediafire.com/?lmc1vif0mqj
http://www.mediafire.com/?itfyzlqtgww
http://www.mediafire.com/?lgjve5zbutf
http://www.mediafire.com/?lpiwxzzhb0m
http://www.mediafire.com/?lxb2ivmoubb
http://www.mediafire.com/?mz2hzudl9wm
http://www.mediafire.com/?0t5hltmbze4









----------







Shrek 3 [2007] DvDrip

shrek3uu3.jpg




Media Info:
Code:
General
Complete name                    : Shrek.3[2007]DvDrip[Alb]-neutrOn.avi
Format                           : AVI
Format/Info                      : Audio Video Interleave
File size                        : 697 MiB
Duration                         : 1h 28mn
Overall bit rate                 : 1 096 Kbps

Video
ID                               : 0
Format                           : MPEG-4 Visual
Format profile                   : Streaming [email protected]
Format settings, BVOP            : Yes
Format settings, QPel            : No
Format settings, GMC             : No warppoints
Format settings, Matrix          : Default (H.263)
Codec ID                         : DX50
Codec ID/Hint                    : DivX 5
Duration                         : 1h 28mn
Bit rate                         : 891 Kbps
Width                            : 616 pixels
Height                           : 336 pixels
Display aspect ratio             : 16/9
Frame rate                       : 25.000 fps
Original frame rate              : 23.976 fps
Resolution                       : 24 bits
Colorimetry                      : 4:2:0
Scan type                        : Progressive
Bits/(Pixel*Frame)               : 0.172
Stream size                      : 566 MiB (81%)
Writing library                  : XviD 1.0.3 (UTC 2004-12-20)

Audio
ID                               : 1
Format                           : MPEG Audio
Format version                   : Version 1
Format profile                   : Layer 3
Codec ID                         : 55
Codec ID/Hint                    : MP3
Duration                         : 1h 28mn
Bit rate mode                    : Constant
Bit rate                         : 192 Kbps
Channel(s)                       : 2 channels
Sampling rate                    : 48.0 KHz
Resolution                       : 16 bits
Stream size                      : 122 MiB (18%)
Alignment                        : Split accross interleaves
Interleave, duration             : 24 ms (0.60 video frame)



IMDB Link:
Code:
http://www.imdb.com/title/tt0413267/



Screenshots:
42899546.jpg

98795028.jpg

70019774.jpg




Download:
Code:
http://www.multiupload.com/Y3OY8EOGLD
http://www.multiupload.com/IQH6VDV5LW
http://www.multiupload.com/4MKVJ8BT2M
http://www.multiupload.com/9HQUTWMFGK
http://www.multiupload.com/R2Y5AJH6ED
http://www.multiupload.com/0OP25L0D8Z
http://www.multiupload.com/7EYTAQSM0T



rapidshare.com
Code:
http://rapidshare.com/files/265720405/Shrek.The.Third_2007_DvDrip_Alb_-neutrOn.part1.rar
http://rapidshare.com/files/265720397/Shrek.The.Third_2007_DvDrip_Alb_-neutrOn.part2.rar
http://rapidshare.com/files/265720416/Shrek.The.Third_2007_DvDrip_Alb_-neutrOn.part3.rar
http://rapidshare.com/files/265720503/Shrek.The.Third_2007_DvDrip_Alb_-neutrOn.part4.rar
http://rapidshare.com/files/265751249/Shrek.The.Third_2007_DvDrip_Alb_-neutrOn.part5.rar
http://rapidshare.com/files/265808917/Shrek.The.Third_2007_DvDrip_Alb_-neutrOn.part6.rar
http://rapidshare.com/files/265875814/Shrek.The.Third_2007_DvDrip_Alb_-neutrOn.part7.rar



mediafire.com
Code:
http://www.mediafire.com/?ncejbnmuctm
http://www.mediafire.com/?mjxmqyavvgl
http://www.mediafire.com/?mxol3z9ijys
http://www.mediafire.com/?thoahd9zxmt
http://www.mediafire.com/?zz35iytao11
http://www.mediafire.com/?lxnoistbfsj
http://www.mediafire.com/?cj1enzz0l5k
 

sWeetTy

Antarë
Elefanti Horton dhe njerëzit e vegjël [2008] HDrip - 350MB

tforg-Horton-Hears-Who-free-2008.jpg





Media Info:
Code:
General
Complete name                    : C:\Documents and Settings\Administrator\Desktop\HHAW\HHW[2008]DvDrip[Alb]-neutrOn\Elefanti.Horton.dhe.njerëzit.e.vegjël[2008]DvDrip[Alb]-neutrOn.mkv
Format                           : Matroska
File size                        : 350 MiB
Duration                         : 1h 22mn
Overall bit rate                 : 593 Kbps
Movie name                       : Avidemux
Writing application              : Lavf52.33.0
Writing library                  : Lavf52.33.0

Video
ID                               : 1
Format                           : AVC
Format/Info                      : Advanced Video Codec
Format profile                   : [email protected]
Format settings, CABAC           : Yes
Format settings, ReFrames        : 5 frames
Muxing mode                      : Container [email protected]
Codec ID                         : V_MPEG4/ISO/AVC
Duration                         : 1h 22mn
Nominal bit rate                 : 446 Kbps
Width                            : 720 pixels
Height                           : 384 pixels
Display aspect ratio             : 1.875
Frame rate                       : 25.000 fps
Original frame rate              : 23.976 fps
Resolution                       : 24 bits
Colorimetry                      : 4:2:0
Scan type                        : Progressive
Bits/(Pixel*Frame)               : 0.065
Writing library                  : x264 core 65 r1077M e46f648
Encoding settings                : cabac=1 / ref=5 / deblock=1:-2:-1 / analyse=0x3:0x113 / me=umh / subme=6 / psy_rd=1.0:0.0 / mixed_ref=1 / me_range=16 / chroma_me=1 / trellis=1 / 8x8dct=1 / cqm=0 / deadzone=21,11 / chroma_qp_offset=-2 / threads=3 / nr=0 / decimate=1 / mbaff=0 / bframes=16 / b_pyramid=1 / b_adapt=1 / b_bias=0 / direct=3 / wpredb=1 / keyint=250 / keyint_min=25 / scenecut=40(pre) / rc=2pass / bitrate=446 / ratetol=1.0 / qcomp=0.60 / qpmin=10 / qpmax=51 / qpstep=4 / cplxblur=20.0 / qblur=0.5 / ip_ratio=1.40 / pb_ratio=1.30 / aq=1:1.00

Audio
ID                               : 2
Format                           : AAC
Format/Info                      : Advanced Audio Codec
Format version                   : Version 4
Format profile                   : LC
Format settings, SBR             : No
Codec ID                         : A_AAC
Duration                         : 1h 22mn
Channel(s)                       : 2 channels
Channel positions                : L R
Sampling rate                    : 48.0 KHz
Resolution                       : 16 bits
Video delay                      : -80ms



IMDB Link:
Code:
http://www.imdb.com/title/tt0451079/



Screenshots:
88942029.jpg

89728708.jpg

95806159.jpg




Download:
Code:
http://www.mediafire.com/?2ioxndidwyt
http://www.mediafire.com/?x9hnjz1dglx
http://www.mediafire.com/?iwvye1xgpzj
http://www.mediafire.com/?w11qw9j4qlp



rapidshare.com
Code:
http://rapidshare.com/files/266990214/HHW_2008_DvDrip_Alb_-neutrOn.part1.rar
http://rapidshare.com/files/266989995/HHW_2008_DvDrip_Alb_-neutrOn.part2.rar
http://rapidshare.com/files/267081649/HHW_2008_DvDrip_Alb_-neutrOn.part3.rar
http://rapidshare.com/files/267147014/HHW_2008_DvDrip_Alb_-neutrOn.part4.rar
 

sWeetTy

Antarë
DRAGON BALL besoj se mund ta gjesh edhe ne GOOGLE - VIDEO shqip vetem ta shkruash SFERAT E DRAGOIT por nuk besoj se eshte me kualitet te mire (pamje te paster).Besoj se e din kete...
 

neutrOn

Antar Aktiv
Filma vizatimore te dubluar ne shqip! (pjesa2)

Lili dhe Endacaku [1955] DvDrip

Lady-and-the-Tramp.jpg




30j2q6b.png

Code:
[url=http://www.imdb.com/title/tt0048280/]Lady and the Tramp (1955)[/url]
Code:
General
Complete name                    : Lili dhe Endacaku [1955] DvDrip [Alb] - neutrOn.avi
Format                           : AVI
File size                        : 702 MiB
Duration                         : 1h 13mn

Video
Codec ID/Hint                    : XviD
Bit rate                         : 1 133 Kbps
Width                            : 672 pixels
Height                           : 256 pixels

Audio
Codec ID/Hint                    : MP3
Bit rate                         : 192 Kbps
Channel(s)                       : 2 channels
Sampling rate                    : 48.0 KHz



bdl47k.png

29766892.jpg

88277152.jpg

20801337.jpg




hx3r69.png

Code:
http://rapidshare.com/files/293949679/Lady.And.The.Tramp_1955_DvDrip_Alb_-neutrOn.part1.rar
http://rapidshare.com/files/293949244/Lady.And.The.Tramp_1955_DvDrip_Alb_-neutrOn.part2.rar
http://rapidshare.com/files/293949349/Lady.And.The.Tramp_1955_DvDrip_Alb_-neutrOn.part3.rar
http://rapidshare.com/files/294115073/Lady.And.The.Tramp_1955_DvDrip_Alb_-neutrOn.part4.rar
http://rapidshare.com/files/294112041/Lady.And.The.Tramp_1955_DvDrip_Alb_-neutrOn.part5.rar
http://rapidshare.com/files/294112098/Lady.And.The.Tramp_1955_DvDrip_Alb_-neutrOn.part6.rar
http://rapidshare.com/files/294112642/Lady.And.The.Tramp_1955_DvDrip_Alb_-neutrOn.part7.rar







***







Bukuroshja e fjetur [1959] DvDrip

65623795.png




30j2q6b.png

Code:
http://www.imdb.com/title/tt0053285/
Code:
General
Complete name                    : Bukuroshja e fjetur [1959] DvDrip [Alb] - neutrOn.avi
Format                           : AVI
File size                        : 702 MiB
Duration                         : 1h 12mn

Video
Codec ID/Hint                    : XviD
Duration                         : 1h 12mn
Bit rate                         : 1 219 Kbps
Width                            : 640 pixels
Height                           : 480 pixels

Audio
Codec ID/Hint                    : MP3
Bit rate                         : 128 Kbps
Sampling rate                    : 48.0 KHz
Resolution                       : 16 bits



bdl47k.png

74900668.jpg

25681072.jpg

74481184.jpg




hx3r69.png

Code:
http://rapidshare.com/files/290235021/Sleeping_Beauty__1959__DvDrip__Alb__-_neutrOn.part1.rar
http://rapidshare.com/files/290584451/Sleeping_Beauty__1959__DvDrip__Alb__-_neutrOn.part2.rar
http://rapidshare.com/files/291096311/Sleeping_Beauty__1959__DvDrip__Alb__-_neutrOn.part3.rar
http://rapidshare.com/files/290698528/Sleeping_Beauty__1959__DvDrip__Alb__-_neutrOn.part4.rar
http://rapidshare.com/files/291049195/Sleeping_Beauty__1959__DvDrip__Alb__-_neutrOn.part5.rar
http://rapidshare.com/files/291093245/Sleeping_Beauty__1959__DvDrip__Alb__-_neutrOn.part6.rar
http://rapidshare.com/files/291170695/Sleeping_Beauty__1959__DvDrip__Alb__-_neutrOn.part7.rar
 

neutrOn

Antar Aktiv

Mulan [1998] DvDrip


32929648.png




30j2q6b.png

Code:
http://www.imdb.com/title/tt0120762/
Code:
General
Complete name                    : Mulan [1998] DvDrip [Alb] - neutrOn.avi
Format                           : AVI
File size                        : 700 MiB
Duration                         : 1h 27mn

Video
Codec ID/Hint                    : XviD
Bit rate                         : 987 Kbps
Width                            : 672 pixels
Height                           : 400 pixels

Audio
Codec ID/Hint                    : MP3
Bit rate                         : 128 Kbps
Sampling rate                    : 44.1 KHz
Resolution                       : 16 bits



bdl47k.png

52801122.jpg

92097753.jpg

46124400.jpg




hx3r69.png

Code:
http://rapidshare.com/files/291454222/Mulan__1998__DvDrip__Alb__-_neutrOn.part1.rar
http://rapidshare.com/files/291454308/Mulan__1998__DvDrip__Alb__-_neutrOn.part2.rar
http://rapidshare.com/files/291454451/Mulan__1998__DvDrip__Alb__-_neutrOn.part3.rar
http://rapidshare.com/files/291454537/Mulan__1998__DvDrip__Alb__-_neutrOn.part4.rar
http://rapidshare.com/files/291454294/Mulan__1998__DvDrip__Alb__-_neutrOn.part5.rar
http://rapidshare.com/files/291454528/Mulan__1998__DvDrip__Alb__-_neutrOn.part6.rar
http://rapidshare.com/files/291454755/Mulan__1998__DvDrip__Alb__-_neutrOn.part7.rar







***








Sirena e vogël 2 [2000] DvDrip

The_Little_Mermaid_2_Poster.jpg




30j2q6b.png

Code:
[url=http://www.imdb.com/title/tt0240684/]The Little Mermaid II: Return to the Sea (2000) (V)[/url]
Code:
General
Complete name                    : Sirena e vogël 2 [1998] DvDrip [Alb] - neutrOn.avi
Format                           : AVI
File size                        : 698 MiB
Duration                         : 1h 10mn

Video
Codec ID/Hint                    : DivX 3 Low
Bit rate                         : 1 213 Kbps
Width                            : 576 pixels
Height                           : 352 pixels

Audio
Codec ID/Hint                    : MP3
Bit rate                         : 160 Kbps
Channel(s)                       : 2 channels
Sampling rate                    : 48.0 KHz



bdl47k.png

18217492.jpg

17795433.jpg

88191817.jpg




hx3r69.png

Code:
http://rapidshare.com/files/292345866/The.Little.Mirmaid.2_1998_DvDrip_Alb_-neutrOn.part1.rar
http://rapidshare.com/files/292345819/The.Little.Mirmaid.2_1998_DvDrip_Alb_-neutrOn.part2.rar
http://rapidshare.com/files/292345954/The.Little.Mirmaid.2_1998_DvDrip_Alb_-neutrOn.part3.rar
http://rapidshare.com/files/292348733/The.Little.Mirmaid.2_1998_DvDrip_Alb_-neutrOn.part4.rar
http://rapidshare.com/files/292569161/The.Little.Mirmaid.2_1998_DvDrip_Alb_-neutrOn.part5.rar
http://rapidshare.com/files/292569249/The.Little.Mirmaid.2_1998_DvDrip_Alb_-neutrOn.part6.rar
http://rapidshare.com/files/292569235/The.Little.Mirmaid.2_1998_DvDrip_Alb_-neutrOn.part7.rar
 

neutrOn

Antar Aktiv
Balto 2 [2002] DvDrip

balto2.jpg




30j2q6b.png

Code:
[url=http://www.imdb.com/title/tt0281634/]Balto: Wolf Quest (2002) (V)[/url]
Code:
General
Complete name                    : Balto 2 [2002] DvDrip [Alb] - neutrOn.avi
Format                           : AVI
File size                        : 699 MiB
Duration                         : 1h 12mn

Video
Codec ID/Hint                    : XviD
Bit rate                         : 1 214 Kbps
Width                            : 704 pixels
Height                           : 368 pixels

Audio
Codec ID/Hint                    : MP3
Bit rate                         : 128 Kbps
Channel(s)                       : 2 channels
Sampling rate                    : 48.0 KHz



bdl47k.png

80945701.jpg

27233088.jpg

42933593.jpg




hx3r69.png

Code:
http://rapidshare.com/files/291899187/Balto2_2002_DvDrip_Alb_-neutrOn.part1.rar
http://rapidshare.com/files/291899341/Balto2_2002_DvDrip_Alb_-neutrOn.part2.rar
http://rapidshare.com/files/291899390/Balto2_2002_DvDrip_Alb_-neutrOn.part3.rar
http://rapidshare.com/files/292011829/Balto2_2002_DvDrip_Alb_-neutrOn.part4.rar
http://rapidshare.com/files/292167264/Balto2_2002_DvDrip_Alb_-neutrOn.part5.rar
http://rapidshare.com/files/292167253/Balto2_2002_DvDrip_Alb_-neutrOn.part6.rar
http://rapidshare.com/files/292167441/Balto2_2002_DvDrip_Alb_-neutrOn.part7.rar







***







Mulan II [2004] DvDrip

mulan2uk0.jpg




30j2q6b.png

Code:
[url=http://www.imdb.com/title/tt0279967/]Mulan II (2004) (V)[/url]
Code:
General
Complete name                    : Mulan II [2004] DvDrip [Alb] - neutrOn.avi
Format                           : AVI
File size                        : 694 MiB
Duration                         : 1h 15mn

Video
Codec ID/Hint                    : XviD
Bit rate                         : 1 154 Kbps
Width                            : 640 pixels
Height                           : 352 pixels

Audio
Codec ID/Hint                    : MP3
Bit rate                         : 128 Kbps
Channel(s)                       : 2 channels
Sampling rate                    : 44.1 KHz



bdl47k.png

93109215.jpg

35568381.jpg

57278735.jpg




hx3r69.png

Code:
http://rapidshare.com/files/293260942/Mulan.II_2004_DvDrip_Alb_-neutrOn.part1.rar
http://rapidshare.com/files/293260851/Mulan.II_2004_DvDrip_Alb_-neutrOn.part2.rar
http://rapidshare.com/files/293260948/Mulan.II_2004_DvDrip_Alb_-neutrOn.part3.rar
http://rapidshare.com/files/293261003/Mulan.II_2004_DvDrip_Alb_-neutrOn.part4.rar
http://rapidshare.com/files/293362336/Mulan.II_2004_DvDrip_Alb_-neutrOn.part5.rar
http://rapidshare.com/files/293362571/Mulan.II_2004_DvDrip_Alb_-neutrOn.part6.rar
http://rapidshare.com/files/293460035/Mulan.II_2004_DvDrip_Alb_-neutrOn.part7.rar
 

neutrOn

Antar Aktiv
اmenduritë e reja të Kronkut [2005] DvDrip

22681891.jpg




30j2q6b.png

Code:
[url=http://www.imdb.com/title/tt0401398/]The Emperor's New Groove 2: Kronk's New Groove (2005) (V)[/url]
Code:
General
Complete name              : اmenduritë e reja të Kronkut [2005] DvDrip [Alb] - neutrOn.avi
Format                          : AVI
File size                          : 698 MiB
Duration                        : 1h 11mn

Video
Codec ID/Hint                : DivX 3
Bit rate                         : 1 204 Kbps
Width                           : 640 pixels
Height                          : 352 pixels

Audio
Codec ID/Hint               : MP3
Bit rate                        : 160 Kbps
Channel(s)                    : 2 channels
Sampling rate                : 44.1 KHz



bdl47k.png

98605812.jpg

53964019.jpg

48518254.jpg




hx3r69.png

Code:
http://rapidshare.com/files/294112304/Kronk_s.New.Groove_2005_DvDrip_Alb_-neutrOn.part1.rar
http://rapidshare.com/files/294569055/Kronk_s.New.Groove_2005_DvDrip_Alb_-neutrOn.part2.rar
http://rapidshare.com/files/294569114/Kronk_s.New.Groove_2005_DvDrip_Alb_-neutrOn.part3.rar
http://rapidshare.com/files/294569170/Kronk_s.New.Groove_2005_DvDrip_Alb_-neutrOn.part4.rar
http://rapidshare.com/files/294569106/Kronk_s.New.Groove_2005_DvDrip_Alb_-neutrOn.part5.rar
http://rapidshare.com/files/294569177/Kronk_s.New.Groove_2005_DvDrip_Alb_-neutrOn.part6.rar
http://rapidshare.com/files/294569200/Kronk_s.New.Groove_2005_DvDrip_Alb_-neutrOn.part7.rar
 

neutrOn

Antar Aktiv
Heroi im Topolino [2003] DvDrip

29peyd2.jpg




30j2q6b.png

Code:
General
Complete name                    : Të gjithë e duan Mikin [2003] DvDrip [Alb] - neutrOn.avi
Format                           : AVI
File size                        : 701 MiB
Duration                         : 58mn 29s

Video
Codec ID/Hint                    : XviD
Bit rate                         : 1 484 Kbps
Width                            : 512 pixels
Height                           : 384 pixels

Audio
Codec ID/Hint                    : MP3
Bit rate                         : 192 Kbps
Channel(s)                       : 2 channels
Sampling rate                    : 48.0 KHz



bdl47k.png

72409586.jpg

48701688.jpg

60112021.jpg




hx3r69.png

Code:
http://rapidshare.com/files/291534289/Everybody.loves.Mickey_2003_DvDrip_Alb_-neutrOn.part1.rar
http://rapidshare.com/files/291603182/Everybody.loves.Mickey_2003_DvDrip_Alb_-neutrOn.part2.rar
http://rapidshare.com/files/291899211/Everybody.loves.Mickey_2003_DvDrip_Alb_-neutrOn.part3.rar
http://rapidshare.com/files/291899161/Everybody.loves.Mickey_2003_DvDrip_Alb_-neutrOn.part4.rar
http://rapidshare.com/files/291899167/Everybody.loves.Mickey_2003_DvDrip_Alb_-neutrOn.part5.rar
http://rapidshare.com/files/291899088/Everybody.loves.Mickey_2003_DvDrip_Alb_-neutrOn.part6.rar
http://rapidshare.com/files/291899165/Everybody.loves.Mickey_2003_DvDrip_Alb_-neutrOn.part7.rar
 

neutrOn

Antar Aktiv
Hirushja [1950] DvDrip

16124253.jpg




30j2q6b.png

Code:
[url=http://www.imdb.com/title/tt0042332/]Cinderella (1950)[/url]
Code:
General
Complete name                    : Hirushja [1950] DvDrip [Alb] - neutrOn.avi
Format                           : AVI
File size                        : 696 MiB
Duration                         : 1h 10mn

Video
Codec ID/Hint                    : XviD
Bit rate                         : 1 241 Kbps
Width                            : 672 pixels
Height                           : 512 pixels

Audio
Codec ID/Hint                    : MP3
Bit rate                         : 128 Kbps
Channel(s)                       : 2 channels
Sampling rate                    : 44.1 KHz



bdl47k.png

36563970.jpg

88932298.jpg

42634983.jpg




hx3r69.png

Code:
http://rapidshare.com/files/296738330/Cinderella__1950__DvDrip__Alb__-_neutrOn.part1.rar
http://rapidshare.com/files/296738155/Cinderella__1950__DvDrip__Alb__-_neutrOn.part2.rar
http://rapidshare.com/files/296738194/Cinderella__1950__DvDrip__Alb__-_neutrOn.part3.rar
http://rapidshare.com/files/296834084/Cinderella__1950__DvDrip__Alb__-_neutrOn.part4.rar
http://rapidshare.com/files/297011267/Cinderella__1950__DvDrip__Alb__-_neutrOn.part5.rar
http://rapidshare.com/files/297011364/Cinderella__1950__DvDrip__Alb__-_neutrOn.part6.rar
http://rapidshare.com/files/297011418/Cinderella__1950__DvDrip__Alb__-_neutrOn.part7.rar







***







Hirushja 2 - Kur ëndërrat bëhen realitet [2002] DvDrip

cinderella2.jpg




30j2q6b.png

Code:
[url=http://www.imdb.com/title/tt0291082/]Cinderella II: Dreams Come True (2002) (V)[/url]
Code:
General
Complete name                    : Hirushja 2 - Kur ëndërrat bëhen realitet [2002] DvDrip [Alb] - neutrOn.avi
Format                           : AVI
File size                        : 699 MiB
Duration                         : 1h 9mn

Video
Codec ID/Hint                    : XviD
Bit rate                         : 1 245 Kbps
Width                            : 624 pixels
Height                           : 368 pixels

Audio
Codec ID/Hint                    : MP3
Bit rate                         : 160 Kbps
Channel(s)                       : 1 channel
Sampling rate                    : 48.0 KHz



bdl47k.png

47206025.jpg

22794469.jpg

77958578.jpg




hx3r69.png

Code:
http://rapidshare.com/files/296309865/Cinderella.II-Dreams.Come.True_2002_DvDrip_Alb_-neutrOn.part1.rar
http://rapidshare.com/files/296309875/Cinderella.II-Dreams.Come.True_2002_DvDrip_Alb_-neutrOn.part2.rar
http://rapidshare.com/files/296571568/Cinderella.II-Dreams.Come.True_2002_DvDrip_Alb_-neutrOn.part3.rar
http://rapidshare.com/files/296571708/Cinderella.II-Dreams.Come.True_2002_DvDrip_Alb_-neutrOn.part4.rar
http://rapidshare.com/files/296570484/Cinderella.II-Dreams.Come.True_2002_DvDrip_Alb_-neutrOn.part5.rar
http://rapidshare.com/files/296570506/Cinderella.II-Dreams.Come.True_2002_DvDrip_Alb_-neutrOn.part6.rar
http://rapidshare.com/files/296550720/Cinderella.II-Dreams.Come.True_2002_DvDrip_Alb_-neutrOn.part7.rar
 

sWeetTy

Antarë
Qe edhe 1 prej meje :D


Milingona Kokëshkëmb [2006] DvDrip

TheAntBully.jpg





30j2q6b.png

Code:
[url=http://www.imdb.com/title/tt0429589/]The Ant Bully (2006)[/url]
Code:
General
Complete name                    : Milingona Kokëshkëmb [2006] DvDrip [Alb] - neutrOn.avi
Format                           : AVI
File size                        : 701 MiB
Duration                         : 1h 25mn

Video
Codec ID/Hint                    : DivX 5
Bit rate                         : 941 Kbps
Width                            : 572 pixels
Height                           : 312 pixels

Audio
Codec ID/Hint                    : MP3
Bit rate                         : 224 Kbps
Channel(s)                       : 2 channels
Sampling rate                    : 48.0 KHz



bdl47k.png

52813853.jpg

62452861.jpg

10231833.jpg




hx3r69.png

[HIDE]
Code:
http://rapidshare.com/files/298501852/The.Ant.Bully_2006_DvDrip_Alb_-neutrOn.part1.rar
http://rapidshare.com/files/299003465/The.Ant.Bully_2006_DvDrip_Alb_-neutrOn.part2.rar
http://rapidshare.com/files/299003572/The.Ant.Bully_2006_DvDrip_Alb_-neutrOn.part3.rar
http://rapidshare.com/files/299003642/The.Ant.Bully_2006_DvDrip_Alb_-neutrOn.part4.rar
http://rapidshare.com/files/299003588/The.Ant.Bully_2006_DvDrip_Alb_-neutrOn.part5.rar
http://rapidshare.com/files/299277749/The.Ant.Bully_2006_DvDrip_Alb_-neutrOn.part6.rar
http://rapidshare.com/files/299459687/The.Ant.Bully_2006_DvDrip_Alb_-neutrOn.part7.rar
[/HIDE]
 

sWeetTy

Antarë
2065.jpg




30j2q6b.png

Code:
[url=http://www.imdb.com/title/tt0133240/]Treasure Planet (2002)[/url]
Code:
General
Complete name                    : Planeti i Thesarit [2002] DvDrip [Alb] - neutrOn.avi
Format                           : AVI
File size                        : 698 MiB
Duration                         : 1h 35mn

Video
Codec ID/Hint                    : XviD
Bit rate                         : 875 Kbps
Width                            : 544 pixels
Height                           : 320 pixels

Audio
Codec ID/Hint                    : MP3
Bit rate                         : 160 Kbps
Channel(s)                       : 2 channels
Sampling rate                    : 48.0 KHz



bdl47k.png

37964160.jpg

36002233.jpg

30106984.jpg




hx3r69.png

Code:
http://rapidshare.com/files/299457726/Treasure.Planet_2002_DvDrip_Alb_-neutrOn.part1.rar
http://rapidshare.com/files/299457855/Treasure.Planet_2002_DvDrip_Alb_-neutrOn.part2.rar
http://rapidshare.com/files/299458028/Treasure.Planet_2002_DvDrip_Alb_-neutrOn.part3.rar
http://rapidshare.com/files/299458006/Treasure.Planet_2002_DvDrip_Alb_-neutrOn.part4.rar
http://rapidshare.com/files/299613192/Treasure.Planet_2002_DvDrip_Alb_-neutrOn.part5.rar
http://rapidshare.com/files/299612876/Treasure.Planet_2002_DvDrip_Alb_-neutrOn.part6.rar
http://rapidshare.com/files/299612841/Treasure.Planet_2002_DvDrip_Alb_-neutrOn.part7.rar
 

neutrOn

Antar Aktiv
Tarzani dhe Xhein [2002] DvDrip

2795310.jpg




30j2q6b.png

Code:
[url=http://www.imdb.com/title/tt0313680/]Tarzan & Jane (2002) (V)[/url]
Code:
General
Complete name                    : Tarzani dhe Xhein [2002] DvDrip [Alb] - neutrOn.avi
Format                           : AVI
File size                        : 701 MiB
Duration                         : 1h 15mn

Video
Codec ID/Hint                    : XviD
Bit rate                         : 1 165 Kbps
Width                            : 656 pixels
Height                           : 384 pixels

Audio
Codec ID/Hint                    : MP3
Bit rate                         : 128 Kbps
Channel(s)                       : 2 channels
Sampling rate                    : 48.0 KHz



bdl47k.png

94794237.jpg

22586933.jpg

69681424.jpg




hx3r69.png

[HIDE]
Code:
http://rapidshare.com/files/308873839/Tarzan_Jane_2002_DvDrip_Alb_-neutrOn.part1.rar
http://rapidshare.com/files/308781862/Tarzan_Jane_2002_DvDrip_Alb_-neutrOn.part2.rar
http://rapidshare.com/files/309083503/Tarzan_Jane_2002_DvDrip_Alb_-neutrOn.part3.rar
http://rapidshare.com/files/309083444/Tarzan_Jane_2002_DvDrip_Alb_-neutrOn.part4.rar
http://rapidshare.com/files/309083186/Tarzan_Jane_2002_DvDrip_Alb_-neutrOn.part5.rar
http://rapidshare.com/files/309082397/Tarzan_Jane_2002_DvDrip_Alb_-neutrOn.part6.rar
http://rapidshare.com/files/309082411/Tarzan_Jane_2002_DvDrip_Alb_-neutrOn.part7.rar
[/HIDE]
 

neutrOn

Antar Aktiv
Veturat [2006] DvDrip [Alb] - neutrOn

88638944.jpg




30j2q6b.png

Code:
[url=http://www.imdb.com/title/tt0317219/]Cars (2006)[/url]
Code:
General
Complete name                    : Veturat [2006] DvDrip [Alb] - neutrOn.avi
Format                           : AVI
File size                        : 700 MiB
Duration                         : 1h 53mn

Video
Codec ID/Hint                    : DivX 5
Bit rate                         : 725 Kbps
Width                            : 576 pixels
Height                           : 238 pixels

Audio
Codec ID/Hint                    : MP3
Bit rate                         : 128 Kbps
Channel(s)                       : 2 channels
Sampling rate                    : 44.1 KHz



bdl47k.png

71012947.jpg

42494281.jpg

91785745.jpg




hx3r69.png

Code:
http://rapidshare.com/files/312221635/Cars_2006_DvDrip_Alb_-neutrOn.part1.rar
http://rapidshare.com/files/312221600/Cars_2006_DvDrip_Alb_-neutrOn.part2.rar
http://rapidshare.com/files/312410992/Cars_2006_DvDrip_Alb_-neutrOn.part3.rar
http://rapidshare.com/files/312411023/Cars_2006_DvDrip_Alb_-neutrOn.part4.rar
http://rapidshare.com/files/312411058/Cars_2006_DvDrip_Alb_-neutrOn.part5.rar
http://rapidshare.com/files/312411719/Cars_2006_DvDrip_Alb_-neutrOn.part6.rar
http://rapidshare.com/files/312411734/Cars_2006_DvDrip_Alb_-neutrOn.part7.rar
 

WxP

Hidrauliku
Titulli: Filma vizatimore te dubluar ne shqip!

Vizatimor ka qen Tarrasi dhe pompaciu e ka njeri per kurjozitet!?
 

madmax

lost in the ocean
Titulli: Filma vizatimore te dubluar ne shqip!

ka ndonje faqe webi qe i permblethe te gjitha filmat vizatimore, jo per shkarkim
 
Titulli: Filma vizatimore te dubluar ne shqip! (pjesa2)

Ju lutem, nqs mundeni a mund te hidhni linke mediafire sepse me rapidin nuk i shkarkoj dot.....
I kam shume qef filmat te dubluar ne shqip...
Ne pjesen e I i kam hedhur pothuajse te gjitha....
JU LUTEM!!!Uploadoini dhe ne mediafire......
JU LUTEM!!!!!
 

CannibaL

The Wisher .
Titulli: Filma vizatimore te dubluar ne shqip! (pjesa2)

Per Fat tmir qe nuk blej cd apo me ba download i kqyri krejt Shqip :D
 

elti73

Antarë
Titulli: Filma vizatimore te dubluar ne shqip! (pjesa2)

a e ka njeri filmin ALADIN
e kam kerku por se kam gjet dot
ju faleminderit
 

shiHanny!!

psiko pa shpres sherimi
Titulli: Filma vizatimore te dubluar ne shqip! (pjesa2)

wee, un qe adhuroj filmat vizatimor..veq shqip m'duken dyqysh si fallco, s'di pse nuk m'plq :(..
 
Top